Re: PotPlayer DXVA + SVP

Вчера поставил шестиугольники.
Впервые нагрузка на проц (40 - 50%) стала меньше чем на видеокарту (55%)

352 (edited by phenomeno 18-02-2012 14:42:04)

Re: PotPlayer DXVA + SVP

Проблема с SVP+Potplayer.
Когда люди начинают резко двигаться,например танцевать,то идёт пропуск кадров или добавление (не пойму). Эфект,как буд-то они очень быстро двигаются,хотя разсинхронизации -нет. Похоже,как буд-то перемотку нажимаешь...
Как  с этим справится?
i7 920,GTX460,6gb ram

Re: PotPlayer DXVA + SVP

phenomeno, это на любом видео или только на определённых?
Просто я такое наблюдал на некоторых фильмах (например безумный макс), там в быстрых сценах при уплавнении всё кажется жутко быстро, и насколько я понял это огрехи съёмки, которые при уплавнении становятся сильно ощутимы.

Re: PotPlayer DXVA + SVP

Да,на любом и заметно только,при резких движениях людей на видео.

Re: PotPlayer DXVA + SVP

Может потому,что винда WIN7 X64?!

Re: PotPlayer DXVA + SVP

у всех х64

357

Re: PotPlayer DXVA + SVP

phenomeno
идёт пропуск кадров или добавление (не пойму)
Если:
1) в окне графиков производительности SVP-индекс держится в районе 1 и не проседает
2) график в EVR Custom по Ctrl-J (есть такой в Pot'e?) строго горизонтален
3) тест дрожания показывает равномерно двигающуюся линию
то SVP и плеер работают корректно. Вы столкнулись с криво снятым фильмом.

Re: PotPlayer DXVA + SVP

MAG79
есть такой в Pot'e?

У Pot'a какая-то собственная фича повешена на эти кнопки. Переход на следующий файл, что ли?... Так что не открывается.

Re: PotPlayer DXVA + SVP

Ахтунг! Рыклама!

Новые сборки плееров:
+ Обновлен SVP до версии 3.0.6
+ В PotPlayer задействован его DXVA2
+ В МРС/KMP добавлен LAV Filters 0.48 как декодер с поддержкой DXVA2
+ В MPC-HC при наличии хорошей видеокарточки включается шейдер sharpen complex 2
+ Установщик сразу прописывает в плееры FFDRawVideo при выборе SVP


Дисклеймер: мои сборки не имеют никакого отношения к SmothVideo Project
Да, инсталлер для SVP делаю я, но независимо от своих пакетов

360

Re: PotPlayer DXVA + SVP

Когда будет сборка с SVP 3.1? Что значит "при наличии хорошей карточки", как программа определяет "хорошесть"? RimPack сразу правильно настраивает плейеры и ффдшоу (по крайней мере так заявлено) однако на сайте есть раздел "Доработка напильником", означает ли это что ничего из описаного в данном разделе, не происходит по умолчанию при установке?

361

Re: PotPlayer DXVA + SVP

Имеет ли смысл использовать Pot + LAV ?
Почему Pot виснет (или глючит) при проигрывании DVD? ( запуск через IFO дальше по меню до основного фильма)

Re: PotPlayer DXVA + SVP

свежая сборочка с 3.1.1 будет?

Re: PotPlayer DXVA + SVP

Andr1an0

дык все там же

Re: PotPlayer DXVA + SVP

кому-то я обещал проверить как загружает ПП своими шейдерами проц и видюху.
Проверил,что с шейдерами, что без них нагрузка тютелька в тютельку одинаковая, с точностью до процента
Проц 10%, видюшка 10-19% (декодер встроеный в ПП)
МРС с ЛАВом нагружает болше проц и меньше видюшку, 18%/5% соответственно, но тоже не меняется с вклчением/выключением шейдеров

365

Re: PotPlayer DXVA + SVP

Rimsky
Проверил,что с шейдерами, что без них нагрузка тютелька в тютельку одинаковая, с точностью до процента
дык, у тебя и карточка приличная wink

16 шейдеров, больше 90% не грузит
http://jpegshare.net/thumbs/a9/ef/a9ef1728ddd20fe9d68741ae1a897a90.jpg

для сравнения madvr c дефолтными настройками, сразу 50%
http://jpegshare.net/thumbs/d0/57/d05708efd6ac84671f9cbdefab51b8ca.jpg

у меня lav copy-back хреново работает на новых версиях pot, с svp на evr custom дергает, на чистом evr боле менее, с madvr вообще все загибается, в топку этот lav...  на nvidia все нормально, но там и copy-back не нужен wink

Re: PotPlayer DXVA + SVP

Кодек-паки ставить не требуется, в плеере всё есть!

Хм, а у меня нету этого ffdshow raw video filter в списке. В чём дело?

Re: PotPlayer DXVA + SVP

Jedi92
Имелось ввиду в сборке пота от 7sh3 все есть

368 (edited by Jedi92 07-11-2012 10:53:41)

Re: PotPlayer DXVA + SVP

%username% wrote:

Jedi92
Имелось ввиду в сборке пота от 7sh3 все есть

Да, уже разобрался, спасибо. Пытаюсь прикрутить программное удвоение fps для плавности картинки (вот этим методом http://rutracker.org/forum/viewtopic.php?t=3665742), плюс попробовал здешнюю сборку PotPlayer'a (SVP скачал, установил, запустил - висит в трее) в итоге в обоих случаях получаю не 60, а 49 fps и вот такие артефакты (скрин получился смазанным но суть в постоянном мигании зеленых полосок внизу и подёргивании изображения):
http://rghost.ru/41403132/thumb.png

369

Re: PotPlayer DXVA + SVP

Jedi92
Картинка-то при использовании чего такая получается? При включении SVP?
Больно похоже на проблемы аппаратного декодирования, что вообще не касается повышения плавности. hmm
---
Ах да. У Pot'овского размытия движения встречаются как раз блочные артефакты. Видимо это они.

http://www.svp-team.com/forum/misc.php?item=1927

Описание сравнения

Post's attachments

Pot_vs_SVP_ani.gif, 675.18 kb, 796 x 289
Pot_vs_SVP_ani.gif 675.18 kb, 542 downloads since 2012-11-07 

370 (edited by Jedi92 07-11-2012 11:35:44)

Re: PotPlayer DXVA + SVP

MAG79
Картинка-то при использовании чего такая получается? При включение SVP?

Я же написал - в обоих случаях. Что без SVP (т.е. просто используя VMR9 Renderless, по гайду на рутрекере), что с SVP (метод, описанный в шапке темы). Открыл другое видео - зелёных полосок нет, но всё равно часто мелькают артефакты. На всякий случай свойства 1го видео:
   
     

Format : Matroska
      Format version : Version 2
      File size : 16.7 GiB
      Duration : 2h 35mn
      Overall bit rate : 15.4 Mbps
      Writing application : mkvmerge v3.4.0 ('Rapunzel') built on May 15 2010 09:38:20
      Writing library : libebml v0.8.0 + libmatroska v0.9.0
   Video #1
      ID : 1
      Format : AVC
      Format/Info : Advanced Video Codec
      Format profile : High@L4.1
      Format settings, CABAC : Yes
      Format settings, ReFrames : 5 frames
      Codec ID : V_MPEG4/ISO/AVC
      Duration : 2h 35mn
      Bit rate : 11.5 Mbps
      Width : 1 920 pixels
      Height : 820 pixels
      Display aspect ratio : 2.35:1
      Frame rate : 24.000 fps
      Color space : YUV
      Chroma subsampling : 4:2:0
      Bit depth : 8 bits
      Scan type : Progressive
      Bits/(Pixel*Frame) : 0.304
      Stream size : 12.1 GiB (73%)
      Writing library : x264 core 104 r1713 c276662
      Encoding settings : cabac=1 / ref=5 / deblock=1:-2:-1 / analyse=0x3:0x113 / me=umh / subme=10 / psy=1 / psy_rd=0.90:0.15 / mixed_ref=1 / me_range=32 / chroma_me=1 / trellis=2 / 8x8dct=1 / cqm=0 / deadzone=21,11 / fast_pskip=0 / chroma_qp_offset=-3 / threads=12 / sliced_threads=0 / nr=0 / decimate=0 / interlaced=0 / constrained_intra=0 / bframes=8 / b_pyramid=2 / b_adapt=2 / b_bias=0 / direct=3 / weightb=1 / open_gop=0 / weightp=2 / keyint=250 / keyint_min=23 / scenecut=40 / intra_refresh=0 / rc_lookahead=60 / rc=2pass / mbtree=1 / bitrate=11480 / ratetol=1.0 / qcomp=0.70 / qpmin=10 / qpmax=51 / qpstep=4 / cplxblur=20.0 / qblur=0.5 / vbv_maxrate=50000 / vbv_bufsize=62500 / ip_ratio=1.40 / aq=1:1.10 / nal_hrd=none

и второго:

Format : Matroska
      Format version : Version 1
      File size : 17.6 GiB
      Duration : 1h 58mn
      Overall bit rate : 21.3 Mbps
      Encoded date : UTC 2008-03-11 08:58:19
      Writing application : mkvmerge v2.1.0 ('Another Place To Fall') built on Aug 19 2007 13:40:07
      Writing library : libebml v0.7.7 + libmatroska v0.8.1
   Video #1
      ID : 1
      Format : VC-1
      Format profile : Advanced@L3
      Codec ID : WVC1
      Codec ID/Hint : Microsoft
      Duration : 1h 58mn
      Bit rate : 16.9 Mbps
      Width : 1 920 pixels
      Height : 1 080 pixels
      Display aspect ratio : 16:9
      Frame rate : 23.976 fps
      Original frame rate : 29.970 fps
      Chroma subsampling : 4:2:0
      Bit depth : 8 bits
      Scan type : Progressive
      Compression mode : Lossy
      Bits/(Pixel*Frame) : 0.341
      Stream size : 14.0 GiB (80%)

   
p.s.
Печалит меня этот плеер что-то, во втором видео не получается растянуть изображение на весь экран ("по вертикали до 16:9 TV", в KMP это легко решалось нажатием "num *"), чувствую зря все эти эксперименты затеял.

371

Re: PotPlayer DXVA + SVP

Jedi92

Frame rate : 24.000 fps

С этим видео все должно быть хорошо.

Frame rate : 23.976 fps
Original frame rate : 29.970 fps

А вот тут возможны проблемы.  Почему это две разных частоты кадров?

Если часто мелькают артефакты, то либо у Вас сыпятся дропы. Либо Вы что-то не так настроили. Я смотрел рапунцель (если это название фильма) с уплавнением через SVP - вообще не заметно артефактов.

372 (edited by %username% 07-11-2012 11:47:28)

Re: PotPlayer DXVA + SVP

MAG79 Я смотрел рапунцель
А в теме про фильмы ни полслова  wink

Jedi92

а) WMR9R только для ХР, для висты и выше - EVR CP
б) если склероз мне не изменяет растяжка на весь экран в поте CTRL+Enter. Ну и горячие клавиши можно настроить как хочецца

373 (edited by Jedi92 07-11-2012 11:53:17)

Re: PotPlayer DXVA + SVP

MAG79
Видимо это они.

Да, чем то похоже, но не то. Вот, к примеру поймал такой момент

http://rghost.ru/41404523/thumb.png

%username%
б) если склероз мне не изменяет растяжка на весь экран в поте CTRL+Enter. Ну и горячие клавиши можно настроить как хочецца

Да, я знаю, перерыл и перекликал уже всё что можно. В 1м фильме с этим всё ок, во 2м нет, не реагирует на это сочетание никак. При этом KMP вполне растягивает.

MAG79
Почему это две разных частоты кадров?

Даже не знаю оО Ну, вот такое вот в свойствах чудо написано.

374

Re: PotPlayer DXVA + SVP

Jedi92
Да. Мозайка из квадратов - это оно. Проявление артефактов потовского удвоения кадров.
Неужели и SVP на Вашей системе дает такие ужасные артефакты? hmm

375

Re: PotPlayer DXVA + SVP

MAG79
Достаточно переехать с 720р на фулку , чтобы увидеть никчемность всех масок . Как и вылеты блоков - на достаточно длинных векторах .
И эти вылеты присутствуют что на 11 , что на 13 шейдере . Последний ещё и режет безбожно .
Конкретно в этом случае - слегка поможет медианное деление , блоки будут мельче .
Ну и лямбда поменьше , с одновременным "убийством" analyse.main.penalty.pnbour        = 500;
Jedi92
Не отчаивайтесь - давайте присоединяйтесь , будем вместе с фулкой воевать . smile